#TITLE:Losing My Mind;
#SUBTITLE:SDO China lv19 - [N]hok[Q] Simfile;
#ARTIST:Lee Seung Gi;
#TITLETRANSLIT:;
#SUBTITLETRANSLIT:;
#ARTISTTRANSLIT:;
#CREDIT:[N]hok[Q];
#BANNER:bn.png;
#BACKGROUND:bg.png;
#LYRICSPATH:;
#CDTITLE:cd.png;
#MUSIC:Losing My Mind.mp3;
#OFFSET:0.000;
#SAMPLESTART:48.781;
#SAMPLELENGTH:12.000;
#SELECTABLE:YES;
#DISPLAYBPM:123.000;
#BPMS:0.000=123.003,1.000=122.998,2.000=123.003,3.000=122.998,5.000=123.003,6.000=122.998,8.000=123.003,9.000=122.998,11.000=123.003,12.000=122.998,13.000=123.003,14.000=122.998,16.000=123.003,17.000=122.998,19.000=123.003,20.000=122.998,21.000=123.003,22.000=122.998,24.000=123.003,25.000=122.998,27.000=123.003,28.000=122.998,29.000=123.003,30.000=122.998,32.000=123.003,33.000=122.998,35.000=123.003,36.000=122.998,37.000=123.003,38.000=122.998,40.000=123.003,41.000=122.998,43.000=123.003,44.000=122.998,46.000=123.003,47.000=122.998,48.000=123.003,49.000=122.998,51.000=123.003,52.000=122.998,54.000=123.003,55.000=122.998,56.000=123.003,57.000=122.998,59.000=123.003,60.000=122.998,62.000=123.003,63.000=122.998,64.000=123.003,65.000=122.998,67.000=123.003,68.000=122.998,70.000=123.003,71.000=122.998,72.000=123.003,73.000=122.998,75.000=123.003,76.000=122.998,78.000=123.003,79.000=122.998,80.000=123.003,81.000=122.998,83.000=123.003,84.000=122.998,86.000=123.003,87.000=122.998,88.000=123.003,89.000=122.998,92.000=123.003,93.000=122.998,96.000=123.003,97.000=122.998,100.000=123.003,101.000=122.998,104.000=123.003,105.000=122.998,108.000=123.003,109.000=122.998,112.000=123.003,113.000=122.998,116.000=123.003,117.000=122.998,120.000=123.003,121.000=122.998,124.000=123.003,125.000=122.998,128.000=123.003,129.000=122.998,132.000=123.003,133.000=122.998,136.000=123.003,137.000=122.998,140.000=123.003,141.000=122.998,144.000=123.003,145.000=122.998,148.000=123.003,149.000=122.998,152.000=123.003,153.000=122.998,156.000=123.003,157.000=122.998,160.000=123.003,161.000=122.998,164.000=123.003,165.000=122.998,168.000=123.003,169.000=122.998,172.000=123.003,173.000=122.998,176.000=123.003,177.000=122.998,180.000=123.003,181.000=122.998,182.000=123.003,183.000=122.998,184.000=123.003,185.000=122.998,186.000=123.003,187.000=122.998,188.000=123.003,189.000=122.998,190.000=123.003,191.000=122.998,192.000=123.003,193.000=122.998,194.000=123.003,195.000=122.998,196.000=123.003,197.000=122.998,198.000=123.003,199.000=122.998,200.000=123.003,201.000=122.998,202.000=123.003,203.000=122.998,204.000=123.003,205.000=122.998,206.000=123.003,207.000=122.998,208.000=123.003,209.000=122.998,210.000=123.003,211.000=122.998,212.000=123.003,213.000=122.998,214.000=123.003,215.000=122.998,216.000=123.003,217.000=122.998,218.000=123.003,219.000=122.998,220.000=123.003,221.000=122.998,222.000=123.003,223.000=122.998,224.000=123.003,225.000=122.998,226.000=123.003,227.000=122.998,228.000=123.003,229.000=122.998,230.000=123.003,231.000=122.998,232.000=123.003,233.000=122.998,234.000=123.003,235.000=122.998,236.000=123.003,237.000=122.998,238.000=123.003,239.000=122.998,240.000=123.003,241.000=122.998,242.000=123.003,243.000=122.998,244.000=123.003,245.000=122.998,246.000=123.003,247.000=122.998,248.000=123.003,249.000=122.998,250.000=123.003,251.000=122.998,252.000=123.003,253.000=122.998,254.000=123.003,255.000=122.998,256.000=123.003,257.000=122.998,258.000=123.003,259.000=122.998,260.000=123.003,261.000=122.998,262.000=123.003;
#STOPS:;
#BGCHANGES:;
// cache tags:
#FIRSTBEAT:4.000;
#LASTBEAT:263.000;
#SONGFILENAME:Songs/Super Dancer Online/Losing My Mind/Losing My Mind.sm;
#HASMUSIC:1;
#HASBANNER:1;
#MUSICLENGTH:128.735;
// end cache tags

//---------------dance-single - ----------------
#NOTES:
     dance-single:
     :
     Hard:
     19:
     1.000,0.919,1.000,0.668,0.120,523.000,298.000,86.000,0.000,146.000:
0000
0000
0000
0000
,
0101
1000
0010
1001
0000
1001
0110
0011
,
0000
0000
1000
0000
0010
0000
0100
0000
0001
0000
0000
0110
0000
0000
0101
0000
,
1010
0100
0001
1100
0000
1001
0010
0100
,
0001
0000
1000
0000
0010
0000
0100
0000
1001
0000
0000
1001
0000
0000
0110
0000
,
1001
0100
0010
0101
0000
1010
0100
0001
,
0100
0000
0001
0000
1000
0000
0011
0000
1001
0000
0000
0110
0000
0000
1001
0000
,
1210
0001
1300
0011
0000
1001
0010
0210
,
1002
0010
1300
1010
0110
1010
0110
1100
,
0113
0001
1100
0010
0001
0100
1001
0210
,
0010
0000
1000
0000
0311
0000
1010
0000
0101
0000
0010
0110
1001
0000
1010
0000
,
2001
0010
3100
0010
1000
0011
0101
0120
,
1000
0000
0101
0000
1130
0000
0101
0000
1001
0000
1010
0101
1010
0000
0110
0000
,
1002
0010
0113
1000
0010
0100
1001
0120
,
1000
0000
0100
0000
1031
0000
0100
0000
1010
0000
0001
1100
0011
0000
1010
0000
,
0102
1000
0113
1000
0001
0100
1010
0201
,
0012
1000
1310
1000
0010
0100
1010
0100
,
1223
0001
1031
1020
0001
1000
1031
0010
,
0310
0000
1000
0000
0011
0000
0100
0000
1001
0000
0100
1010
0101
0000
1010
0000
,
0102
0010
1103
1010
0100
0001
1010
0101
,
1020
0000
0001
0000
0131
0000
1000
0000
0101
0000
0010
1100
0011
0000
1010
0000
,
1201
0000
0310
1000
0001
0100
0010
1000
,
1102
0000
0013
0100
1010
0100
0011
1010
,
0101
0001
1100
1000
0102
0010
1100
0100
,
1013
0100
1021
0100
1001
0100
2101
0001
,
3131
0000
0010
0001
1100
0000
0011
0000
0100
0000
1010
0000
0101
0000
1010
0000
,
1000
0000
0010
1000
0101
0000
1021
0000
1100
0000
0001
1100
0131
0000
1001
0000
,
0100
0000
0010
0100
1001
0000
0100
0000
0001
0000
1010
0000
0011
0000
0110
0000
,
1000
0000
0010
1000
0101
0000
1010
0000
0101
0000
0010
0101
1100
0000
0101
0000
,
0010
0100
1002
0000
1100
0000
0010
0000
0103
0000
0010
0000
1001
0000
0100
0000
,
0010
0000
1000
0100
0011
0000
0100
0000
1021
0000
0100
0101
1031
0000
0110
0000
,
2001
0100
3121
1000
0031
0100
0011
2010
,
0200
0000
3001
1001
2010
0011
3011
1010
,
0312
0100
1013
0100
1001
0100
1010
0201
,
0002
0000
0010
0000
1310
0000
0100
0000
1010
0000
0100
1000
0110
0000
1010
0000
,
1223
0001
1031
0001
0010
1000
0011
1020
,
0301
0000
1001
0000
0131
0000
1010
0000
1001
0000
0010
1100
0011
0000
1010
0000
,
0101
0010
1001
0010
0100
0001
1010
0201
,
0010
0000
1000
0000
0311
0000
1010
0000
0101
0000
0010
1100
0011
0000
1001
0000
,
1210
1000
0311
2001
0010
3102
1010
0213
,
1000
1010
1301
1010
1001
0110
1100
0101
,
1020
0001
1031
0102
0010
1000
0113
1200
,
0001
0000
1010
0000
0311
0000
1010
0000
0110
0000
1000
0101
0011
0000
0101
0000
,
2011
0100
3011
0210
1000
1301
0011
2010
,
0001
0000
0110
0000
3011
0000
0101
0000
1010
0000
0100
1001
1100
0000
1010
0000
,
1202
0010
1310
0010
0100
0010
1100
0120
,
2103
0000
0100
0000
0131
0000
0011
0000
0110
0000
0001
0110
0011
0000
0110
0000
,
3112
0010
1103
0010
0100
0001
1010
0201
,
1020
0001
1301
0100
0001
0100
1100
0001
,
2230
0000
3010
1002
0010
1000
0013
2010
,
0300
0000
3002
0000
0010
0000
1203
0000
1010
0000
0310
1001
0100
0000
1010
0000
,
0100
0010
2001
0010
3002
0000
1103
0011
,
0100
0000
0010
0000
1000
0000
0101
0000
1010
0000
0010
1100
0000
0000
1010
0000
,
0102
0010
2100
0010
3210
0000
0310
2000
,
0003
0000
3021
0000
1000
0000
0231
0000
1010
0000
1301
0110
1000
0000
0102
0000
,
2000
0000
3010
0200
0000
0323
0000
2030
,
0002
3100
2010
0200
3010
1320
0100
2130
,
0113
0001
0011
3100
0010
1010
0101
1010
,
0100
0000
1010
0000
0011
0000
2101
0000
0101
0000
3001
0110
0011
0000
1020
0000
,
0101
1030
0011
1010
0100
1001
0110
1001
,
0010
0000
0101
0000
1100
0000
1012
0000
1010
0000
0103
1001
1100
0000
0201
0000
,
1001
0000
0310
0001
1100
0000
0101
0000
0010
0000
1001
0000
0101
0000
1010
0000
,
0101
0000
1010
0000
0011
0000
1120
0000
0101
0000
1030
0101
1100
0000
0102
0000
,
1010
0000
0103
0010
1100
0000
0010
0000
1000
0000
0010
0000
0101
0000
1000
0000
,
0212
0000
1310
0100
1000
0010
1100
0010
,
1013
0100
0001
2000
0000
0000
3000
0000
;
